Skip to main content

Backyard Tire Fire Live at Off Broadway on 2006-02-18


Topics Live concert


Set:

01: Crack Alley
02: Wandering Green Eyed Soul
03: Undecided
04: Tryin' to Get Paid
05:
06: More Than A Lot
07: A Better Day
08: Keep It In line
09: The Daze
10: It's Been A Long Time >
11: Gray Sky Blues
12: Me and My Gun
13: Blood on the Strings
14: I'm Tore Down *
15: It's a Good Night
16: Thick Skin
17:
18: Corinne
19: Time to Go


Collection BackyardTireFire
Band/Artist Backyard Tire Fire
Venue Off Broadway
Location St. Louis, MO

Source Josephson C42mp > Grace Lunatec V2 > SD 722 (24/96) / FOBDC / XY / 6.5' high / 15' from the stage
Lineage Nuendo 3: Waves REQ6 > L1 / resampled / dithered using uv22hr
Taped by Brian Sax
Transferred by

Notes

Time: 76:47

w/ Jerry Ericson on the pedal steel for the entire set.
* Freddy King song

SHNTool Output:
length expanded size cdr WAVE problems filename
4:12.05 44464604 --- -- ---xx btf2006-02-18d1t01.flac
3:36.73 38274140 --- -- ---xx btf2006-02-18d1t02.flac
3:34.21 37799036 --- -- ---xx btf2006-02-18d1t03.flac
3:47.64 40193372 --- -- ---xx btf2006-02-18d1t04.flac
3:50.74 40746092 --- -- ---xx btf2006-02-18d1t05.flac
2:36.26 27579596 --- -- ---xx btf2006-02-18d1t06.flac
2:49.57 29945708 --- -- ---xx btf2006-02-18d1t07.flac
2:17.36 24251516 --- -- ---xx btf2006-02-18d1t08.flac
3:43.19 39381932 --- -- ---xx btf2006-02-18d1t09.flac
6:23.37 67648268 --- -- ---xx btf2006-02-18d1t10.flac
6:45.55 71571404 --- -- ---xx btf2006-02-18d1t11.flac
3:16.68 34734380 --- -- ---xx btf2006-02-18d1t12.flac
3:38.29 38523452 --- -- ---xx btf2006-02-18d1t13.flac
4:44.50 50215244 --- -- ---xx btf2006-02-18d1t14.flac
2:32.15 26848124 --- -- ---xx btf2006-02-18d1t15.flac
3:55.40 41548124 --- -- ---xx btf2006-02-18d1t16.flac
5:58.37 63238268 --- -- ---xx btf2006-02-18d1t17.flac
6:33.69 69487532 --- -- ---xx btf2006-02-18d1t18.flac
2:39.25 28106444 --- -- ---xx btf2006-02-18d1t19.flac
76:57.50 814557236 B (totals for 19 files, 0.5754 overall compression ratio)

Reviews

Reviewer: Charred Radials - - July 6, 2006
Subject: Correction
btf2006-02-18d1t05 = Apparitions
btf2006-02-18d1t17 = Powderfinger (Neil Young)

Keep rocking Ed, Matt, Tim
Reviewer: BuffaloFREAK - - March 23, 2006
Subject: If You Don't Like This Band Go and Kill Yourself
Spankdogg here, and if you have any knowledge of music you will go to a show to see these guys. Oh yeah go to the store and buy there albums.
Reviewer: TBS - STL - - February 23, 2006
Subject: Thanks......
for the setlist corrections! I was going by what i knew and what i thought i heard Ed say when he introduced the songs.

These guys are so good and this was a great set!
Reviewer: Harpua6 - - February 22, 2006
Subject: Awesome Band
These guys rock...definately download this.

Setlist Corrections:

1. Crack Alley
2. Wandering Green Eyed Soul
3. Undecided
4. Tryin' To Get Paid
5. *can't remember the name of this one
6. More Than A Lot
7. A Better Day
8. Keep It In The Line
9. The Daze
10. Its Been a Long Time
11. Gray Sky Blues
12. Me and My Gun
13. Blood on the Strings
14. I'm Tore Down
15. It's a Good Night
16. Thick Skin
17. ???
18. Corinne
19. Time to Go
DOWNLOAD OPTIONS
Uploaded by
TBS - STL
on 2/22/2006
Views
22,897
Favorites
1
Reviews
4
PEOPLE ALSO FOUND
Backyard Tire Fire
by Backyard Tire Fire
5,811
0
3
( 3 reviews )
Source: Schoeps CMC64s > V2 > SD722 (24bit/96kHz)
Backyard Tire Fire
by Backyard Tire Fire
22,848
1
4
( 4 reviews )
Source: Josephson C42mp > Grace Lunatec V2 > SD 722 (24/96) / FOBDC / XY / 6.5' high / 15' from the stage
moe.
by moe.
865
0
0
Source: ADK A51TL(matched) > wmod UA5 > M1@ 44.1kHz
Speakeasy
by Speakeasy
143
0
0
Source: Octava MC012(cards) > w-mod UA5 > M1 @ 44.1kHz
The Basement Shift
by The Basement Shift
149
0
1
( 1 reviews )
Source: Electret Condenser Mic from a Sony HandyCam
Madahoochi
by Madahoochi
2,539
0
2
( 2 reviews )
Source: ADK A51TL's(matched) > V3 (hpf1=-6dB/oct@125Hz) > M1 @44.1kHz
Spookie Daly Pride
by Spookie Daly Pride
921
1
0
Source: Pre-FM SBD > DAT (44.1kHz)
Madahoochi
by Madahoochi
1,552
0
0
Source: MATRIX: [(SBD>XLR)+(Schoeps CMC64>AM Hyperlite XLRs>V2)] > 744T @ 24bit/88.2kHz
Madahoochi
by Madahoochi
677
0
1
( 1 reviews )
Source: Multritrack Matrix: 11 direct outs from Allen&Heath SBD + Schoeps CMC64(XY onstage) > Roland VS2400 (24bit/44.1kHz)
Dirty Dozen Brass Band
by Dirty Dozen Brass Band
1,221
2
1
( 1 reviews )
Source: Octava MC012(cards) > w-mod UA5 > M1 @ 48kHz